中羽在线社区


找回密码 | 立即注册
 找回密码
 立即注册

QQ登录

只需一步,快速开始

扫码登录更安全

查看: 1283|回复: 4

[高清视频] *jervise 出品必精品*2024.BWF.Word.Tour.S300.Thailand.Masters无广告无台标13场18G

[复制链接]
 楼主| 发表于 2024-2-12 12:42:06 | 显示全部楼层 |阅读模式
1.jpg
2.jpg
3.jpg
4.jpg
5.jpg

链接:https://pan.baidu.com/s/1GwjmyWByJKoFKPSflVjC2w?pwd=g542
提取码:g542


决赛5场:
2024.BWF.Word.Tour.S300.Thailand.Masters.Mdf.HE Ji Ting&REN Xiang Yu vs Peeratchai SUKPHUN&Pakkapon TEERARATSAKUL
2024.BWF.Word.Tour.S300.Thailand.Masters.Msf.CHOU Tien Chen vs LOH Kean Yew
2024.BWF.Word.Tour.S300.Thailand.Masters.Wdf.Benyapa AIMSAARD&Nuntakarn AIMSAARD vs LI Yi Jing&LUO Xu Min
2024.BWF.Word.Tour.S300.Thailand.Masters.Wsf.Aya OHORI vs Supanida KATETHONG
2024.BWF.Word.Tour.S300.Thailand.Masters.Xdf.Dechapol PUAVARANUKROH&Sapsiree TAERATTANACHAI vs CHEN Tang Jie&TOH Ee Wei

半决赛8场:
2024.BWF.Word.Tour.S300.Thailand.Masters.Mdsf.HE Ji Ting&REN Xiang Yu vs Muhammad Shohibul FIKRI&Bagas MAULANA

2024.BWF.Word.Tour.S300.Thailand.Masters.Mssf.CHOU Tien Chen vs Mark CALJOUW
2024.BWF.Word.Tour.S300.Thailand.Masters.Mssf.LOH Kean Yew vs SU Li Yang

2024.BWF.Word.Tour.S300.Thailand.Masters.Wdsf.Benyapa AIMSAARD&Nuntakarn AIMSAARD vs Febriana Dwipuji KUSUMA&Amalia Cahaya PRATIWI

2024.BWF.Word.Tour.S300.Thailand.Masters.Wssf.Aya OHORI vs Busanan ONGBAMRUNGPHAN
2024.BWF.Word.Tour.S300.Thailand.Masters.Wssf.Supanida KATETHONG vs Ashmita CHALIHA

2024.BWF.Word.Tour.S300.Thailand.Masters.Xdsf. CHEN Tang Jie&TOH Ee Wei vs Hiroki MIDORIKAWA&Natsu SAITO
2024.BWF.Word.Tour.S300.Thailand.Masters.Xdsf.Dechapol PUAVARANUKROH&Sapsiree TAERATTANACHAI vs Rehan Naufal KUSHARJANTO&Lisa Ayu KUSUMAWATI

---
General
Complete name                  : D:\2024.BWF.Word.Tour.S300.Thailand.Masters.泰国大师赛\2024.BWF.Word.Tour.S300.Thailand.Masters.Mdf.HE Ji Ting&REN Xiang Yu vs Peeratchai SUKPHUN&Pakkapon TEERARATSAKUL.mp4
Format                         : MPEG-4
Format profile                 : Base Media
Codec ID                       : isom (isom/iso2/avc1/mp41)
File size                      : 1.98 GiB
Duration                       : 1 h 25 min
Overall bit rate               : 3 303 kb/s
Frame rate                     : 30.000 FPS
Writing application            : Lavf58.76.100


Video
ID                             : 1
Format                         : AVC
Format/Info                    : Advanced Video Codec
Format profile                 : High@L4
Format settings                : CABAC / 3 Ref Frames
Format settings, CABAC         : Yes
Format settings, Reference fra : 3 frames
Codec ID                       : avc1
Codec ID/Info                  : Advanced Video Coding
Duration                       : 1 h 25 min
Bit rate                       : 2 977 kb/s
Width                          : 1 920 pixels
Height                         : 1 080 pixels
Display aspect ratio           : 16:9
Frame rate mode                : Constant
Frame rate                     : 30.000 FPS
Color space                    : YUV
Chroma subsampling             : 4:2:0
Bit depth                      : 8 bits
Scan type                      : Progressive
Bits/(Pixel*Frame)             : 0.048
Stream size                    : 1.79 GiB (90%)
Title                          : ISO Media file produced by Google Inc.
Color range                    : Limited
Color primaries                : BT.709
Transfer characteristics       : BT.709
Matrix coefficients            : BT.709
Codec configuration box        : avcC


Audio
ID                             : 2
Format                         : MPEG Audio
Format version                 : Version 1
Format profile                 : Layer 3
Format settings                : Joint stereo / MS Stereo
Codec ID                       : mp4a-6B
Duration                       : 1 h 25 min
Source duration                : 1 h 25 min
Source_Duration_LastFrame      : -18 ms
Bit rate mode                  : Constant
Bit rate                       : 320 kb/s
Channel(s)                     : 2 channels
Sampling rate                  : 48.0 kHz
Compression mode               : Lossy
Stream size                    : 196 MiB (10%)
Source stream size             : 196 MiB (10%)
Title                          : ISO Media file produced by Google Inc.
Writing library                : LAME3.100
Language                       : English
Default                        : Yes
Alternate group                : 1
mdhd_Duration                  : 5150047
---

本帖最后由 jervise 于 2024-2-12 15:07 编辑
 楼主| 发表于 2024-2-12 14:38:26 | 显示全部楼层
2楼占位,尽快下载
回复 支持 反对

使用道具 举报

发表于 2024-2-12 15:36:37 来自中羽APP | 显示全部楼层
感谢分享!新年快乐!
回复 支持 反对

使用道具 举报

发表于 2024-2-12 17:13:33 | 显示全部楼层
谢谢分享。。。。。。。。。。。。。。
回复 支持 反对

使用道具 举报

发表于 2024-2-13 00:46:27 来自中羽APP | 显示全部楼层
感谢分享!
回复 支持 反对

使用道具 举报

您需要登录后才可以回帖 登录 | 立即注册

本版积分规则

关闭

社区公告上一条 /1 下一条

Archiver|小黑屋|手机APP|商务联系|招聘信息|中羽在线 ( 闽ICP备19012345号-2 | 经营许可证 闽B2-20200611 )

GMT+8, 2024-2-28 14:02 , Processed in 0.064443 second(s), Total 12, Slave 11 queries , Redis On.

快速回复 返回顶部 返回列表